sestdiena, 2010. gada 6. novembris

EEE PC 701

Man joprojām labi un stabili strādā jau trešo gadu. Esmu apmierināts, ja pirktu tagad - nopirktu iPad, jo toreiz kaut ko līdzīgu skatījos, ar skārienjutīgu ekrānu, HP 12 collu pa 800Ls, bet bija pa smagu. Trūkums: klavai jāsāk stiprāk spiest - o, m, k, tāpēc dažreiz šie burti bl...gā izpalie... , un gribās klavas apgaismojumu.

Man patika šis portatīvo videokaršu un veiktspēju salīdzinošais saits.
3DMark 2001 - Standard 1024x768 = 2685 tiko notestēju.

Te mans GMA900 (915), nesen pat gribēju nopirkt pa 20Ls H264 hārdvārdisko (hardware) dekoderu (piemēram: BCM70015 mini pci-e HD Crystal Decoder - BCM970015), bet cena strauji pacēlās uz 50 un vairāk, un apetīte pazuda.

Video atskaņo lieliski ar KMplayer (vai Mplayer, VLC ir bremze) līdz 1280x720pixels AVC.avi:
General
Complete name : D:\Sora tobu yureisen (1969) DVDRip.avi
Format : AVI
Format/Info : Audio Video Interleave
Format profile : OpenDML
File size : 2.24 GiB
Duration : 1h 0mn
Overall bit rate : 5 299 Kbps
Writing application : MEncoder SVN-r30881(20100311-gcc4.3.3)
Writing library : MPlayer

Video #0
Format : AVC
Format/Info : Advanced Video Codec
Format profile : High@L4.0
Format settings, CABAC : No
Format settings, ReFrames : 1 frame
Codec ID : avc1
Duration : 27mn 11s
Bit rate : 11.2 Mbps
Nominal bit rate : 5 000 Kbps
Width : 1 280 pixels
Height : 720 pixels
Display aspect ratio : 16:9
Frame rate : 29.970 fps
Resolution : 24 bits
Colorimetry : 4:2:0
Scan type : Progressive
Bits/(Pixel*Frame) : 0.405
Stream size : 2.13 GiB (95%)
Writing library : x264 core 80 r1378+57 6f6b50a

Audio #1
ID : 1
Format : MPEG Audio
Format version : Version 1
Format profile : Layer 3
Codec ID : 55
Codec ID/Hint : MP3
Duration : 1h 0mn
Bit rate mode : Constant
Bit rate : 256 Kbps
Channel(s) : 2 channels
Sampling rate : 48.0 KHz
Resolution : 16 bits
Stream size : 111 MiB (5%)
Alignment : Aligned on interleaves
Interleave, duration : 24 ms (0.72 video frame)
Interleave, preload duration : 504 ms
Writing library : LAME3.98

Īstnībā es biju pārsteigts (parasti līdz 840pix filmas), tāpēc iekopēju video faila raksturojumu, varbūt noderēs. Bieži bremzē tieši skaņas līkais kodekss, bet, ja neiet, es uzreiz pārkodēju ar "xilisoft" (izmantoju jau no 2003).

Nav komentāru: